古哥論壇

 找回密碼
 注冊(分享大片)
查看: 5368|回復: 191
打印 上一主題 下一主題

[動作] [勇敢者游戲2:再戰巔峰]2019.1080p.WEBRip.DD5.1.x264-CM 外掛中字/5.07GB

  [復制鏈接]
跳轉到指定樓層
1#
發表于 2020-2-29 22:28:20 | 只看該作者 回帖獎勵 |倒序瀏覽 |閱讀模式
4K天堂


◎譯  名 勇敢者游戲2:再戰巔峰 / Jumanji 2 / 勇敢者游戲2 / 勇敢者游戲4 / 新勇敢者的游戲2 / 逃出魔幻紀:霸氣升呢(港) / 野蠻游戲:全面晉級(臺)
◎片  名 Jumanji: The Next Level
◎年  代 2019
◎產  地 美國
◎類  別 喜劇 / 動作 / 奇幻 / 冒險
◎語  言 英語
◎上映日期 2019-12-06(中國大陸) / 2019-12-13(美國)
◎IMDb評分  6.9/10 from 84008 users
◎IMDb鏈接  https://www.imdb.com/title/tt7975244
◎豆瓣評分 6.1/10 from 50765 users
◎魔爪論壇   http://www.91mz.cc
◎片  長 122分鐘
◎導  演 杰克・卡斯丹 Jake Kasdan
◎編  劇 杰夫・皮克納 Jeff Pinkner / 斯科特・羅森伯格 Scott Rosenberg
◎主  演 道恩・強森 Dwayne Johnson
       凱倫・吉蘭 Karen Gillan
       杰克・布萊克 Jack Black
       凱文・哈特 Kevin Hart
       尼克・喬納斯 Nick Jonas
       奧卡菲娜 Awkwafina
       亞歷克斯・沃爾夫 Alex Wolff
       丹尼・德維托 Danny DeVito
       摩根・特納 Morgan Turner
       羅伊・麥克凱恩 Rory McCann
       瑪琳・辛科 Marin Hinkle
       麥迪森・伊瑟曼 Madison Iseman
       科林・漢克斯 Colin Hanks
       丹妮亞・拉米雷茲 Dania Ramirez
       瑞斯・達比 Rhys Darby
       丹尼・格洛弗 Danny Glover
       瑟達呂斯・布蘭 Ser'Darius Blain
       尼克・戈麥斯 Nick Gomez
       布魯諾・羅斯 Bruno Rose
       莎拉・貝納尼 Sarah Bennani
       查爾斯・格林 Charles Green
       邁克爾・比斯利 Michael Beasley
       保羅・皮爾斯伯里 Paul Pillsbury
       薩爾・隆戈巴爾多 Sal Longobardo
       約翰・蓋蒂爾 John Gettier

◎簡  介  
  四名勇敢者再次穿越回到險象環生的游戲世界中,開啟全新冒險。與上次不同的是,變身勇石博士 (道恩・強森 飾) 的是斯潘瑟的外公,外公的好友則變身為語言學家 (凱文・ 哈特 飾),高大威猛的弗里奇變成了中年發福地質學家 (杰克・布萊克 飾),只有學霸瑪莎依舊化身性感打女 (凱倫・吉蘭 飾),斯潘瑟和貝瑟尼卻不知所蹤。為營救消失的伙伴,四人必須進入全面失控的未知世界,面對難度爆表危險重重的致命關卡,強森領隊挑戰極限玩命闖關。山崩石裂的險境中命懸一線,與突如其來的兇猛野獸死戰到底,他們唯有繃緊神經并肩作戰,才能通過生死考驗逃出生天。一場驚險刺激又充滿驚喜的冒險之旅即將展開!
Video
ID                                       : 1
Format                                   : AVC
Format/Info                              : Advanced Video Codec
Format profile                           : [email protected]
Format settings                          : CABAC / 2 Ref Frames
Format settings, CABAC                   : Yes
Format settings, Reference frames        : 2 frames
Codec ID                                 : V_MPEG4/ISO/AVC
Duration                                 : 2 h 3 min
Bit rate                                 : 5 509 kb/s
Width                                    : 1 920 pixels
Height                                   : 1 080 pixels
Display aspect ratio                     : 16:9
Frame rate mode                          : Constant
Frame rate                               : 23.976 (24000/1001) FPS
Color space                              : YUV
Chroma subsampling                       : 4:2:0
Bit depth                                : 8 bits
Scan type                                : Progressive
Bits/(Pixel*Frame)                       : 0.111
Stream size                              : 4.74 GiB (93%)
Writing library                          : x264 core 155 r2901 7d0ff22
Default                                  : Yes
Forced                                   : No
Color range                              : Limited
Color primaries                          : BT.709
Transfer characteristics                 : BT.709
Matrix coefficients                      : BT.709

Audio
ID                                       : 2
Format                                   : AC-3
Format/Info                              : Audio Coding 3
Commercial name                          : Dolby Digital
Codec ID                                 : A_AC3
Duration                                 : 2 h 3 min
Bit rate mode                            : Constant
Bit rate                                 : 384 kb/s
Channel(s)                               : 6 channels
Channel layout                           : L R C LFE Ls Rs
Sampling rate                            : 48.0 kHz
Frame rate                               : 31.250 FPS (1536 SPF)
Bit depth                                : 16 bits
Compression mode                         : Lossy
Delay relative to video                  : 6 ms
Stream size                              : 338 MiB (7%)
Title                                    : English
Language                                 : English
Service kind                             : Complete Main
Default                                  : No
Forced                                   : No

Text
ID                                       : 3
Format                                   : UTF-8
Codec ID                                 : S_TEXT/UTF8
Codec ID/Info                            : UTF-8 Plain Text
Duration                                 : 1 h 52 min
Bit rate                                 : 58 b/s
Count of elements                        : 1719
Stream size                              : 48.5 KiB (0%)
Language                                 : English
Default                                  : Yes
Forced                                   : No




游客,如果您要查看本帖隱藏內容請回復,如果您想無廣告、免回復、下載附件免影視幣請開通VIP:VIP傳送門



[勇敢者游戲2:再戰巔峰]Jumanji.The.Next.Level.2019.WEBRip.Web版中文字幕包
http://www.91mz.cc/thread-1212-1-1.html
(出處: 魔爪論壇)



古哥影視論壇www.illxsb.live 高清電影,藍光電影,最新電影,電影天堂,影視帝國,人人影視
2#
發表于 2020-2-29 22:35:15 | 只看該作者
既然你誠信誠意的推薦了,那我就勉為其難的看看吧!愛電影,愛生活古哥影視不走平凡路。





......
古哥影視論壇www.illxsb.live 高清電影,藍光電影,最新電影,電影天堂,影視帝國,人人影視
回復 支持 反對

使用道具 舉報

3#
發表于 2020-2-29 22:38:23 | 只看該作者
樓主發貼辛苦了,謝謝樓主分享!
古哥影視論壇www.illxsb.live 高清電影,藍光電影,最新電影,電影天堂,影視帝國,人人影視
回復 支持 反對

使用道具 舉報

4#
發表于 2020-2-29 22:38:52 | 只看該作者

樓主發貼辛苦了,謝謝樓主分享!
古哥影視論壇www.illxsb.live 高清電影,藍光電影,最新電影,電影天堂,影視帝國,人人影視
回復 支持 反對

使用道具 舉報

5#
發表于 2020-2-29 22:45:43 | 只看該作者
看看是什么
古哥影視論壇www.illxsb.live 高清電影,藍光電影,最新電影,電影天堂,影視帝國,人人影視
回復 支持 反對

使用道具 舉報

6#
發表于 2020-2-29 22:47:25 | 只看該作者
謝謝樓主分享
古哥影視論壇www.illxsb.live 高清電影,藍光電影,最新電影,電影天堂,影視帝國,人人影視
回復 支持 反對

使用道具 舉報

7#
發表于 2020-2-29 23:00:09 | 只看該作者
樓主發貼辛苦了,謝謝樓主分享!我覺得古哥影視的電影是最值得收藏的!
古哥影視論壇www.illxsb.live 高清電影,藍光電影,最新電影,電影天堂,影視帝國,人人影視
回復 支持 反對

使用道具 舉報

8#
發表于 2020-2-29 23:03:35 | 只看該作者

這個帖子不回對不起自己!我想我是一天也不能離開古哥影視
古哥影視論壇www.illxsb.live 高清電影,藍光電影,最新電影,電影天堂,影視帝國,人人影視
回復 支持 反對

使用道具 舉報

10#
發表于 2020-2-29 23:22:25 | 只看該作者
樓主發貼辛苦了,謝謝樓主分享!我覺得古哥影視的電影是最值得收藏的!
古哥影視論壇www.illxsb.live 高清電影,藍光電影,最新電影,電影天堂,影視帝國,人人影視
回復 支持 反對

使用道具 舉報

11#
發表于 2020-2-29 23:24:21 | 只看該作者

樓主太厲害了!樓主,I*老*虎*U!古哥影視絕對是電影愛好的天堂!
古哥影視論壇www.illxsb.live 高清電影,藍光電影,最新電影,電影天堂,影視帝國,人人影視
回復 支持 反對

使用道具 舉報

12#
發表于 2020-2-29 23:32:46 | 只看該作者
感謝樓主分享
古哥影視論壇www.illxsb.live 高清電影,藍光電影,最新電影,電影天堂,影視帝國,人人影視
回復 支持 反對

使用道具 舉報

13#
發表于 2020-3-1 00:06:04 | 只看該作者
樓主發貼辛苦了,謝謝樓主分享!我覺得古哥影視的電影是最值得收藏的!
古哥影視論壇www.illxsb.live 高清電影,藍光電影,最新電影,電影天堂,影視帝國,人人影視
回復 支持 反對

使用道具 舉報

14#
發表于 2020-3-1 00:28:35 | 只看該作者
非常感謝樓主的分享
古哥影視論壇www.illxsb.live 高清電影,藍光電影,最新電影,電影天堂,影視帝國,人人影視
回復 支持 反對

使用道具 舉報

15#
發表于 2020-3-1 00:32:35 | 只看該作者
樓主發貼辛苦了,謝謝樓主分享!我覺得古哥影視的電影是最值得收藏的!
古哥影視論壇www.illxsb.live 高清電影,藍光電影,最新電影,電影天堂,影視帝國,人人影視
回復 支持 反對

使用道具 舉報

16#
發表于 2020-3-1 00:36:10 | 只看該作者
樓主發貼辛苦了,謝謝樓主分享!我覺得古哥影視的電影是最值得收藏的!
古哥影視論壇www.illxsb.live 高清電影,藍光電影,最新電影,電影天堂,影視帝國,人人影視
回復 支持 反對

使用道具 舉報

17#
發表于 2020-3-1 00:49:52 | 只看該作者
多謝樓主分享影片
古哥影視論壇www.illxsb.live 高清電影,藍光電影,最新電影,電影天堂,影視帝國,人人影視
回復 支持 反對

使用道具 舉報

18#
發表于 2020-3-1 00:54:50 | 只看該作者

我看不錯噢 謝謝樓主!古哥影視越來越好,高清電影還得上這來下載!
古哥影視論壇www.illxsb.live 高清電影,藍光電影,最新電影,電影天堂,影視帝國,人人影視
回復 支持 反對

使用道具 舉報

19#
發表于 2020-3-1 00:57:17 | 只看該作者

這東西我收了!謝謝樓主!古哥影視真好!一定要堅持下去,支持不住時請讓大家捐助
古哥影視論壇www.illxsb.live 高清電影,藍光電影,最新電影,電影天堂,影視帝國,人人影視
回復 支持 反對

使用道具 舉報

20#
發表于 2020-3-1 01:17:55 | 只看該作者

這個帖子不回對不起自己!我想我是一天也不能離開古哥影視
古哥影視論壇www.illxsb.live 高清電影,藍光電影,最新電影,電影天堂,影視帝國,人人影視
回復 支持 反對

使用道具 舉報

懶得打字嘛,點擊右側快捷回復->
您需要登錄后才可以回帖 登錄 | 注冊(分享大片)

本版積分規則

影視帝國免責聲明
本站提供網上學習交流和自由討論使用,所有資源均來自互聯網公開渠道,發布和個人言論并不代表本站立場,本站不負任何責任.
如發現有侵權行為,請與我們聯系.我們將立刻從網站上刪除,并向所有持版權者致最深歉意.
影視帝國論壇已經安全運行

QQ|小黑屋|手機版|Archiver|古哥論壇

GMT+8, 2020-6-3 15:16 , Processed in 0.205152 second(s), 20 queries , Gzip On.

Powered by Discuz! X3.4

© 2001-2017 Comsenz Inc.

快速回復 返回頂部 返回列表
莱加内斯对阵皇马